Создать аккаунт
Войти





24.7 MB

Twitter Facebook Google Livejournal Pinterest

У цинь си скачать книгу


Описание: У цинь си скачать книгу
Имя файла: u-cin-si-knigu
Оздоровительный цигун У Цинь Си (Игры 5-ти животных)
Год выпуска: 2007
Страна: Китай
Жанр: Оздоровительный цигун
Тип раздаваемого материала: Видеоурок
Продолжительность: 00:46:21
Язык: Русский
Субтитры: есть, русские
Описание: Цель упражнений — оздоровление организма. Эта система была разработана известным врачом восточной династии Хань (25-220 гг. н. э.) — Хуа То. Так как технические требования, предъявляемые к выполнению этих упражнений, невысокие, их могут выполнять люди всех возрастных групп с различным уровнем физической подготовки. Как показала практика, по прошествии определенного времени при постоянном выполнении этих упражнений улучшается не только физическое, но и психологическое состояние занимающихся.
Качество: DVDRip
Формат: AVI
Видео кодек: XviD
Видео: 720x568 (1.27:1), 25 fps, XviD MPEG-4 1020 kbps avg, 0.10 bit/pixel
Аудио: 44.100 kHz, MPEG Layer 3, 2 ch, 192.00 kbps avg

MediaInfo

Общее
Полное имя : F:\u cin si\u cin si.avi
Формат : AVI
Формат/Информация : Audio Video Interleave
Размер файла : 405 Мбайт
Продолжительность : 46 м.
Общий поток : 1223 Кбит/сек
Видео
Идентификатор : 0
Формат : MPEG-4 Visual
Профиль формата : Advanced Simple@L5
Параметр BVOP формата : 2
Параметр QPel формата : Нет
Параметр GMC формата : Без точки перехода
Параметр матрицы формата : Default (H.263)
Режим смешивания : Сжатый битовый поток
Идентификатор кодека : XVID
Идентификатор кодека/Подсказка : XviD
Продолжительность : 46 м.
Битрейт : 1021 Кбит/сек
Ширина : 720 пикселей
Высота : 568 пикселей
Соотношение сторон : 5:4
Частота кадров : 25,000 кадров/сек
Цветовое пространство : YUV
Субдискретизация насыщенности : 4:2:0
Битовая глубина : 8 бит
Тип развёртки : Прогрессивная
Метод сжатия : С потерями
Бит/(ПикселиКадры) : 0.100
Размер потока : 339 Мбайт (83%)
Библиотека кодирования : XviD 1.2.0.dev47 (UTC 2006-11-01)
Аудио
Идентификатор : 1
Формат : MPEG Audio
Версия формата : Version 1
Профиль формата : Layer 3
Идентификатор кодека : 55
Идентификатор кодека/Подсказка : MP3
Продолжительность : 46 м.
Вид битрейта : Постоянный
Битрейт : 192 Кбит/сек
Каналы : 2 канала
Частота : 44,1 КГц
Метод сжатия : С потерями
Задержка видео : 26 мс.
Размер потока : 63,7 Мбайт (16%)
Выравнивание : Разделение по промежуткам
Продолжительность промежутка : 40 мс. (1,00 видеокадр)
Заголовок : Audio Stream
Библиотека кодирования : LAME3.92

Скриншоты

Download
Сайт не распространяет и не хранит электронные версии произведений, а лишь предоставляет доступ к создаваемому пользователями каталогу ссылок на торрент-файлы, которые содержат только списки хеш-сумм

Cсылка для сайта (HTML):

Cсылка для форума (BBCode):